Darkest Hour 2017 1080p BRRip x264 AAC - Hon3y

  • Category Movies
  • Type HD
  • Language English
  • Total size 2.5 GB
  • Uploaded By Hon3yHD
  • Downloads 101
  • Last checked 6 days ago
  • Date uploaded 1 week ago
  • Seeders 12
  • Leechers 11

Darkest Hour

DramaHistoryWar

A thrilling and inspiring true story begins on the eve of World War II as, within days of becoming Prime Minister of Great Britain, Winston Churchill must face one of his most turbulent and defining trials: exploring a negotiated peace treaty with Nazi Germany, or standing firm to fight for the ideals, liberty and freedom of a nation. As the unstoppable Nazi forces roll across Western Europe and the threat of invasion is imminent, and with an unprepared public, a skeptical King, and his own party plotting against him, Churchill must withstand his darkest hour, rally a nation, and attempt to change the course of world history.

Infohash : 8D59C7DBDEEA8E3C6E6558DE93FA2C0C9401D714




Darkest Hour 2017 1080p BRRip x264 AAC - Hon3y

Source:Drones
Format : Matroska
Format version : Version 4 / Version 2
File size : 2.46 GiB
Duration : 2 h 4 min
Overall bit rate : 2 822 kb/s
Movie name : Darkest Hour 2017 - Hon3y


Video
ID : 1
Format : AVC
Format/Info : Advanced Video Codec
Format profile : [email protected]
Format settings, CABAC : Yes
Format settings, RefFrames : 4 frames
Codec ID : V_MPEG4/ISO/AVC
Duration : 2 h 4 min
Bit rate : 2 500 kb/s
Width : 1 920 pixels
Height : 1 040 pixels
Display aspect ratio : 1.85:1
Frame rate mode : Constant
Frame rate : 23.976 (24000/1001) FPS
Language : English
Default : Yes
Forced : No
Color range : Limited
Color primaries : BT.709
Transfer characteristics : BT.709
Matrix coefficients : BT.709

Audio
ID : 2
Format : AAC
Format/Info : Advanced Audio Codec
Format profile : LC
Codec ID : A_AAC
Duration : 2 h 4 min
Bit rate : 320 kb/s
Channel(s) : 6 channels
Channel positions : Front: L C R, Side: L R, LFE
Sampling rate : 48.0 kHz
Frame rate : 46.875 FPS (1024 SPF)
Compression mode : Lossy
Delay relative to video : 9 ms
Stream size : 286 MiB (11%)
Language : English
Default : Yes
Forced : No

Text
ID : 3
Format : UTF-8
Codec ID : S_TEXT/UTF8
Codec ID/Info : UTF-8 Plain Text
Duration : 1 h 57 min
Bit rate : 59 b/s
Count of elements : 1814
Stream size : 50.8 KiB (0%)
Language : English
Default : Yes
Forced : No



Files:

Darkest Hour 2017 1080p BRRip x264 AAC - Hon3y
  • Darkest Hour 2017 1080p BRRip x264 AAC - Hon3y.mkv (2.5 GB)
  • For more Exclusive & Quality Stuff Visit www.hon3yhd.to.txt (0.2 KB)
  • Torrent Seed By www.cyber-planet.in.txt (0.1 KB)

Comments

Code:

  • udp://tracker.coppersurfer.tk:6969/announce
  • udp://tracker.pirateparty.gr:6969/announce
  • udp://shadowshq.yi.org:6969/announce
  • udp://eddie4.nl:6969/announce
  • udp://tracker.leechers-paradise.org:6969/announce
  • udp://tracker.opentrackr.org:1337/announce
  • udp://p4p.arenabg.ch:1337/announce
  • udp://p4p.arenabg.com:1337/announce
  • udp://9.rarbg.me:2710/announce
  • udp://9.rarbg.to:2710/announce
  • udp://tracker.coppersurfer.tk:80/announce
  • udp://tracker.vanitycore.co:6969/announce
  • udp://public.popcorn-tracker.org:6969/announce
  • udp://tracker.opentrackr.org:1337/announce
  • udp://tracker.zer0day.to:1337/announce