Eric Clapton Life in 12 Bars 2017 720p WEBRip x264 ESub

  • Category Movies
  • Type HD
  • Language English
  • Total size 945.7 MB
  • Uploaded By moviezworldz
  • Downloads 506
  • Last checked 1 week ago
  • Date uploaded 1 week ago
  • Seeders 40
  • Leechers 18

Eric Clapton: Life in 12 Bars

Documentary

An unflinching and deeply personal journey into the life and work of guitarist Eric Clapton told through his own words and songs.

Infohash : BA58D6AADDD3E2231D76058876120A7130594B8F




General
Format : Matroska
Format version : Version 4 / Version 2
File size : 946 MiB
Duration : 2 h 13 min
Overall bit rate : 988 kb/s

Video
ID : 1
Format : AVC
Format/Info : Advanced Video Codec
Format profile : [email protected]
Format settings : CABAC / 4 Ref Frames
Format settings, CABAC : Yes
Format settings, ReFrames : 4 frames
Codec ID : V_MPEG4/ISO/AVC
Duration : 2 h 13 min
Bit rate : 900 kb/s
Width : 1 280 pixels
Height : 724 pixels
Display aspect ratio : 16:9
Frame rate mode : Constant
Frame rate : 23.976 (24000/1001) FPS
Color space : YUV
Chroma subsampling : 4:2:0
Bit depth : 8 bits
Scan type : Progressive
Bits/(Pixel*Frame) : 0.041
Stream size : 851 MiB (90%)
Writing library : x264 core 148 r2708 86b7198
Default : Yes
Forced : No

Audio
ID : 4
Format : AAC
Format/Info : Advanced Audio Codec
Format profile : LC
Codec ID : A_AAC-2
Duration : 2 h 13 min
Bit rate : 96.0 kb/s
Channel(s) : 2 channels
Channel positions : Front: L R
Sampling rate : 44.1 kHz
Frame rate : 43.066 FPS (1024 SPF)
Compression mode : Lossy
Stream size : 91.9 MiB (10%)
Language : English
Default : Yes
Forced : No

Text #1
ID : 2
Format : UTF-8
Codec ID : S_TEXT/UTF8
Codec ID/Info : UTF-8 Plain Text
Duration : 2 h 10 min
Bit rate : 61 b/s
Count of elements : 1733
Stream size : 58.9 KiB (0%)
Language : English
Default : No
Forced : No

Text #2
ID : 3
Format : UTF-8
Codec ID : S_TEXT/UTF8
Codec ID/Info : UTF-8 Plain Text
Duration : 2 h 11 min
Bit rate : 64 b/s
Count of elements : 1838
Stream size : 62.4 KiB (0%)
Title : SDH
Language : English
Default : No
Forced : No














Files:

Eric Clapton Life in 12 Bars 2017 720p WEBRip x264 ESub
  • Eric Clapton Life in 12 Bars 2017 720p WEBRip x264 ESub.mkv (945.7 MB)

There are currently no comments. Feel free to leave one :)

Code:

  • udp://tracker.coppersurfer.tk:6969/announce
  • udp://tracker.leechers-paradise.org:6969/announce
  • udp://inferno.demonoid.pw:3391/announce
  • udp://tracker.tntvillage.scambioetico.org:2710/announce
  • udp://tracker.pirateparty.gr:6969/announce
  • udp://9.rarbg.com:2770/announce
  • udp://public.popcorn-tracker.org:6969/announce
  • udp://tracker.zer0day.to:1337/announce
  • http://bigfoot1942.sektori.org:6969/announce
  • udp://ipv4.tracker.harry.lu:80/announce
  • udp://shadowshq.yi.org:6969/announce
  • udp://tracker.vanitycore.co:6969/announce
  • udp://tracker.opentrackr.org:1337/announce
  • udp://explodie.org:6969/announce
  • udp://tracker.zer0day.to:1337/announce
  • udp://tracker.leechers-paradise.org:6969/announce
  • udp://coppersurfer.tk:6969/announce