Renegades - Commando d'assalto (2017).720p.H264.italian.english.A...

  • Category Movies
  • Type HD
  • Language English
  • Total size 1.9 GB
  • Uploaded By robbyrs
  • Downloads 1171
  • Last checked 3 days ago
  • Date uploaded 1 week ago
  • Seeders 391
  • Leechers 116

Renegades

ThrillerAction

A team of Navy SEALs discover an underwater treasure in a Bosnian lake.

Infohash : F90255B559BD9C64C564A4954DDB47571E595E13

Renegades - Commando d'assalto (2017).720p.H264.italian.english.Ac3-5.1.sub.ita.eng.MIRCrew


NO FOUND ONLY ORIGINAL RELEASE



My release is always in double track audio italian and Original audio
for select it use VLC or dvd player home
not use wmp

Renegades - Commando d'assalto (2017)

Qualità MIRCrew in HD 720p da 2,00 gb







GENERE: Azione, Thriller
ANNO: 2017
REGIA: Steven Quale

REGIA: Steven Quale
SCENEGGIATURA: Richard Wenk, Luc Besson
FOTOGRAFIA: Brian Pearson

MONTAGGIO: Florent Vassault
PRODUZIONE: Belga Productions, CB Films, Canal+


PAESE: Francia, Germania
DURATA: 105 Min
DISTRIBUZIONE: M2 Pictures



J.K. Simmons, Ewen Bremner, Sullivan Stapleton, Sylvia Hoeks, Charlie Bewley, Diarmaid Murtagh, Clemens Schick, Dimitri Leonidas, Slavko Sobin, Joshua Henry, Chris Theisinger



Commando d'assalto è un action thriller sulle imprese di un team di Navy Seals con protagonisti Sullivan Stapleton e J.K. Simmons. In missione in Bosnia durante la guerra, un team di Navy Seals viene a conoscenza di un tesoro d'inestimabile valore nascosto dai nazisti e rimasto sepolto sul fondo di un lago per decenni.................



A team of Navy SEALs discover an underwater treasure in a Bosnian lake. ............









[spoiler]
General
Unique ID : 313198345361013578548552170250487115602 (0xEB9FCEA3C36DECF10526E82E6022AF52)
Complete name : Renegades - Commando d'assalto (2017).720p.H264.ita.eng.sub.ita-MIRCrew\Renegades - Commando d'assalto (2017).720p.H264.ita.eng.sub.ita-MIRCrew.mkv
Format : Matroska
Format version : Version 2
File size : 1.94 GiB
Duration : 1h 45mn
Overall bit rate : 2 624 Kbps
Movie name : MIRCrew
Encoded date : UTC 2018-02-11 10:10:30
Writing application : Lavf54.63.100
Writing library : Lavf54.63.100
COPYRIGHT : robbyrs-iCN

Video
ID : 1
Format : AVC
Format/Info : Advanced Video Codec
Format profile : [email protected]
Format settings, CABAC : Yes
Format settings, ReFrames : 2 frames
Codec ID : V_MPEG4/ISO/AVC
Duration : 1h 45mn
Bit rate : 1 750 Kbps
Width : 1 280 pixels
Height : 528 pixels
Display aspect ratio : 2.40:1
Frame rate mode : Variable
Frame rate : 24.000 fps
Color space : YUV
Chroma subsampling : 4:2:0
Bit depth : 8 bits
Scan type : Progressive
Bits/(Pixel*Frame) : 0.108
Stream size : 1.24 GiB (64%)
Writing library : x264 core 130 r2273
Encoding settings : cabac=1 / ref=2 / deblock=1:0:0 / analyse=0x1:0x131 / me=hex / subme=7 / psy=1 / psy_rd=1.00:0.00 / mixed_ref=0 / me_range=16 / chroma_me=1 / trellis=1 / 8x8dct=0 / cqm=0 / deadzone=21,11 / fast_pskip=1 / chroma_qp_offset=-2 / threads=3 / lookahead_threads=1 / sliced_threads=0 / nr=0 / decimate=1 / interlaced=0 / bluray_compat=0 / constrained_intra=0 / bframes=3 / b_pyramid=0 / b_adapt=1 / b_bias=0 / direct=3 / weightb=1 / open_gop=0 / weightp=2 / keyint=240 / keyint_min=24 / scenecut=40 / intra_refresh=0 / rc_lookahead=40 / rc=abr / mbtree=1 / bitrate=1750 / ratetol=1.0 / qcomp=0.60 / qpmin=10 / qpmax=69 / qpstep=4 / vbv_maxrate=24000 / vbv_bufsize=24000 / nal_hrd=none / ip_ratio=1.40 / aq=1:1.00
Default : Yes
Forced : No
DURATION : 01:45:56.209000000
NUMBER_OF_FRAMES : 152549
NUMBER_OF_BYTES : 8360037193
_STATISTICS_WRITING_APP : mkvmerge v9.7.1 ('Pandemonium') 64bit
_STATISTICS_WRITING_DATE_UTC : 2018-02-07 23:35:50
_STATISTICS_TAGS : BPS DURATION NUMBER_OF_FRAMES NUMBER_OF_BYTES

Audio #1
ID : 2
Format : AC-3
Format/Info : Audio Coding 3
Mode extension : CM (complete main)
Codec ID : A_AC3
Duration : 1h 45mn
Bit rate mode : Constant
Bit rate : 448 Kbps
Channel(s) : 6 channels
Channel positions : Front: L C R, Side: L R, LFE
Sampling rate : 48.0 KHz
Bit depth : 16 bits
Compression mode : Lossy
Delay relative to video : 1mn 5s
Stream size : 340 MiB (17%)
Language : Italian
Default : No
Forced : No
DURATION : 01:45:56.960000000
NUMBER_OF_FRAMES : 198655
NUMBER_OF_BYTES : 508556800
_STATISTICS_WRITING_APP : mkvmerge v9.7.1 ('Pandemonium') 64bit
_STATISTICS_WRITING_DATE_UTC : 2018-02-07 23:35:50
_STATISTICS_TAGS : BPS DURATION NUMBER_OF_FRAMES NUMBER_OF_BYTES

Audio #2
ID : 3
Format : AC-3
Format/Info : Audio Coding 3
Mode extension : CM (complete main)
Codec ID : A_AC3
Duration : 1h 45mn
Bit rate mode : Constant
Bit rate : 448 Kbps
Channel(s) : 6 channels
Channel positions : Front: L C R, Side: L R, LFE
Sampling rate : 48.0 KHz
Bit depth : 16 bits
Compression mode : Lossy
Delay relative to video : 1mn 5s
Stream size : 340 MiB (17%)
Language : English
Default : No
Forced : No
DURATION : 01:45:56.960000000
NUMBER_OF_FRAMES : 595965
NUMBER_OF_BYTES : 1199081648
_STATISTICS_WRITING_APP : mkvmerge v9.7.1 ('Pandemonium') 64bit
_STATISTICS_WRITING_DATE_UTC : 2018-02-07 23:35:50
_STATISTICS_TAGS : BPS DURATION NUMBER_OF_FRAMES NUMBER_OF_BYTES

Menu
00:00:00.000 : :(01)00:00:00:000
00:00:49.500 : :(02)00:00:49:500
00:08:55.291 : :(03)00:08:55:291
00:18:57.291 : :(04)00:18:57:291
00:25:43.458 : :(05)00:25:43:458
00:34:06.291 : :(06)00:34:06:291
00:45:40.208 : :(07)00:45:40:208
00:51:21.666 : :(08)00:51:21:666
00:59:01.416 : :(09)00:59:01:416
01:08:51.208 : :(10)01:08:51:208
01:15:51.875 : :(11)01:15:51:875
01:25:10.750 : :(12)01:25:10:750
01:36:09.875 : :(13)01:36:09:875



[/spoiler]



Files:

Renegades - Commando d'assalto (2017).720p.H264.ita.eng.sub.ita-MIRCrew
  • Renegades - Commando d'assalto (2017).720p.H264.ita.eng.sub.ita-MIRCrew.mkv (1.9 GB)
  • Renegades - Commando d'assalto (2017).720p.H264.ita.eng.sub.ita-MIRCrew.srt (57.3 KB)

There are currently no comments. Feel free to leave one :)

Code:

  • udp://tracker.coppersurfer.tk:6969/announce
  • udp://tracker.opentrackr.org:1337/announce
  • udp://tracker.pirateparty.gr:6969/announce
  • udp://tracker.zer0day.to:1337/announce
  • udp://p4p.arenabg.com:1337/announce
  • udp://p4p.arenabg.ch:1337/announce
  • udp://eddie4.nl:6969/announce
  • udp://tracker.leechers-paradise.org:6969/announce
  • udp://9.rarbg.me:2740/announce
  • udp://9.rarbg.to:2740/announce
  • udp://9.rarbg.com:2710/announce
  • http://bigfoot1942.sektori.org:6969/announce
  • udp://tracker.internetwarriors.net:1337/announce
  • udp://oscar.reyesleon.xyz:6969/announce
  • udp://tracker.cyberia.is:6969/announce